快捷导航
查看: 2928|回复: 27

[音乐] [补档][100728][初音ミク Project DIVA 2nd - NONSTOP MIX COLLECTION][tta+cue+BK+DVD] [复制链接]

夸克和胶子
米拉

LEVEL 9 造物者
UID:240953
精华:85
主题:516
帖子:16785
威望:122834
天使币:31106
宣传度:48799
天然°:17791
腹黑°:16464
精灵:907
光羽:0
阅读权限:140
注册时间:2012-3-31
状态: 不在线

  • TA的每日心情
    难过

    签到天数: 553天[LV.Master]伴坛终老

  • 夸克和胶子 发表于 2014-12-7 13:24:40 |显示全部楼层
    原档:[100728][EAC][MHCL-1797~8] 初音ミク -Project DIVA- 2nd NONSTOP MIX COLLECTION (TTA+CUE+BK+DVD)【自抓自扫】

    补了所有部分

    已修复原帖中提到的cue错误







    内容紹介
        「初音ミク」をはじめとする人気VOCALOIDキャラクターを使用した音楽ゲームソフト・SEGA「初音ミク -Project DIVA-」の人気は衰え知らずですが、最新作「初音ミク -Project DIVA- 2nd」が、いよいよ今夏7/29に発売されます。
        そしてその「初音ミク ーProject DIVAー 2nd」の公式コンピレーションアルバムが、遂に登場!!ゲーム内に使用されている楽曲から、全26曲を選曲しノンストップで繋げて聴かせるMIX CDです。ミックスは、サオリリスが担当。
        DVDは、「こっち向いて Baby」のフルCGアニメーションのミュージックビデオと「Yellow」のミュージックビデオの他、ゲーム関連の映像を収録。初回限定仕様は、コレクターズスリーブ、スーパーピクチャーディスク仕様。
        SEGA Crypton Future Media, Inc.
        VOCALOIDは、ヤマハ株式会社の登録商標です。

    【CD収録曲】
      TRACK 01 INTRO /サオリリス
      TRACK 02 こっち向いて Baby /ryo(supercell) feat. 初音ミク
      TRACK 03 カラフル × メロディ /MOER feat. 初音ミク
      TRACK 04 初音ミクの激唱 /Storyteller(GAiA×cosMo@暴走P) feat. 初音ミク
      TRACK 05 恋色病棟 /OSTER project feat. 初音ミク
      TRACK 06 クローバークラブ /ゆうゆ feat. 初音ミク
      TRACK 07 ぽっぴっぽー /ラマーズP feat. 初音ミク
      TRACK 08 巨大少女 /40mP feat. 初音ミク
      TRACK 09 ほんとは分かってる /フナコツP feat. 初音ミク
      TRACK 10 愛言葉 /DECO*27 feat. 初音ミク
      TRACK 11 ダブルラリアット /アゴアニキ feat. 巡音ルカ
      TRACK 12 カンタレラ /WhiteFlame feat. KAITO
      TRACK 13  /Iroha(sasaki) feat. 鏡音リン
      TRACK 14 サウンド /baker feat. 初音ミク
      TRACK 15 メルト /ryo(supercell) feat. 初音ミク
      TRACK 16 初めての恋が終わる時 /ryo(supercell) feat. 初音ミク
      TRACK 17 ハジメテノオト /maio feat. 初音ミク
      TRACK 18 ココロ /トラボルタ feat. 鏡音リン
      TRACK 19 右肩の蝶 /のりぴー feat. 鏡音レン
      TRACK 20 Promise /samfree feat. 初音ミク、鏡音リン
      TRACK 21 Change me /shu-t feat. MEIKO
      TRACK 22 VOiCE /ラヴりーP feat. 初音ミク
      TRACK 23 ファインダー (DSLR remix-re:edit) /kz(livetune) feat. 初音ミク
      TRACK 24 Just Be Friends /Dixie Flatline feat. 巡音ルカ
      TRACK 25 Innocence /kazuP(源屋) feat. 初音ミク
      TRACK 26 "Yellow /kz(livetune) feat. 初音ミク

    【DVD収録曲】
    01 : こっち向いて Baby / ryo(supercell) feat. 初音ミク
    (Music Video)
    02 : Yellow / kz(livetune) feat. 初音ミク (Music Video)
    03 : こっち向いて Baby / ryo(supercell) feat. 初音ミク
    (「初音ミク -Project DIVA- 2nd」 Game Movie)
    04 : Yellow / kz(livetune) feat. 初音ミク
    (「初音ミク -Project DIVA- 2nd」 Game Movie)
    05 : クローバークラブ / ゆうゆ feat. 初音ミク
    (「初音ミク -Project DIVA- 2nd」 Game Movie)
    1. Exact Audio Copy V1.0 beta 3 from 29. August 2011

    2. EAC 抓取日志文件从27. 十月 2012, 19:17

    3. 未知艺术家 / 初音ミク -Project DIVA- 2nd NONSTOP MIX COLLECTION

    4. 使用驱动器  :        CD-ROM PAT5211   Adapter: 1  ID: 0

    5. 读取模式      : 可靠Secure
    6. 使用精确流     : 是
    7. 清空音频缓存    : 是
    8. 使用 C2 指示器 : 是

    9. 读取偏移校正:               : 0
    10. 读取 Lead-In 和 Lead-Out : 否
    11. 用静音填充抓取中丢失偏移的采样       : 是
    12. 去除首尾静音块               : 否
    13. 在CRC 计算中使用了空样本       : 是
    14. 已用接口                  : Win NT 及 2000 本地 Win32 接口

    15. 所用输出模式: : 内部 WAV 函数
    16. 样本格式    : 44.100 Hz; 16 Bit; 立体声


    17. 已抓取 CD 的 TOC

    18.      音轨 |    起始    |    长度    |  起始扇区  |  结束扇区  
    19.     --------------------------------------------
    20.       1 |  0:00.00 |  0:31.09 |      0 |   2333
    21.       2 |  0:31.09 |  3:22.62 |   2334 |  17545
    22.       3 |  3:53.71 |  3:59.02 |  17546 |  35472
    23.       4 |  7:52.73 |  2:20.63 |  35473 |  46035
    24.       5 | 10:13.61 |  3:04.59 |  46036 |  59894
    25.       6 | 13:18.45 |  2:52.58 |  59895 |  72852
    26.       7 | 16:11.28 |  3:02.01 |  72853 |  86503
    27.       8 | 19:13.29 |  3:26.13 |  86504 | 101966
    28.       9 | 22:39.42 |  3:29.03 | 101967 | 117644
    29.      10 | 26:08.45 |  2:56.32 | 117645 | 130876
    30.      11 | 29:05.02 |  3:21.57 | 130877 | 146008
    31.      12 | 32:26.59 |  2:55.30 | 146009 | 159163
    32.      13 | 35:22.14 |  3:20.05 | 159164 | 174168
    33.      14 | 38:42.19 |  2:46.40 | 174169 | 186658
    34.      15 | 41:28.59 |  2:57.55 | 186659 | 199988
    35.      16 | 44:26.39 |  2:51.07 | 199989 | 212820
    36.      17 | 47:17.46 |  2:35.61 | 212821 | 224506
    37.      18 | 49:53.32 |  2:56.74 | 224507 | 237780
    38.      19 | 52:50.31 |  2:35.38 | 237781 | 249443
    39.      20 | 55:25.69 |  2:45.14 | 249444 | 261832
    40.      21 | 58:11.08 |  3:19.02 | 261833 | 276759
    41.      22 | 61:30.10 |  3:22.64 | 276760 | 291973
    42.      23 | 64:52.74 |  3:29.67 | 291974 | 307715
    43.      24 | 68:22.66 |  3:11.03 | 307716 | 322043
    44.      25 | 71:33.69 |  3:02.28 | 322044 | 335721
    45.      26 | 74:36.22 |  3:17.42 | 335722 | 350538


    46. 范围状态及错误

    47. 已选择范围

    48.      文件名 D:\未知艺术家 - 初音ミク -Project DIVA- 2nd NONSTOP MIX COLLECTION.wav

    49.      峰值电平 100.0 %
    50.      抓取速度 2.7 X
    51.      范围质量 98.6 %
    52.      复制 CRC ACF3A37F
    53.      复制结束

    54. 没有错误发生

    55. 状态报告结尾
    复制代码
    下载地址
    已添加3%恢复记录,压缩包出错请先尝试修复~
    seku
    炎夏

    梦幻天使
    UID:54889
    头衔:沉浸在纯音中的半恢复型Forneus
    精华:1
    主题:728
    帖子:10982
    威望:21107
    天使币:8128
    宣传度:329
    天然°:3822
    腹黑°:2833
    精灵:55
    光羽:0
    阅读权限:130
    注册时间:2011-6-12
    来自:现实与幻想的乐园
    状态: 不在线

  • TA的每日心情
    慵懒

    签到天数: 220天[LV.9]以坛为家II

  • seku 发表于 2014-12-7 15:06:18 |显示全部楼层
    这碟是万恶之源啊

    使用道具 举报

    夸克和胶子
    米拉

    LEVEL 9 造物者
    UID:240953
    精华:85
    主题:516
    帖子:16785
    威望:122834
    天使币:31106
    宣传度:48799
    天然°:17791
    腹黑°:16464
    精灵:907
    光羽:0
    阅读权限:140
    注册时间:2012-3-31
    状态: 不在线

  • TA的每日心情
    难过

    签到天数: 553天[LV.Master]伴坛终老

  • 夸克和胶子 发表于 2014-12-7 15:07:30 |显示全部楼层
    seku 发表于 2014-12-7 15:06
    这碟是万恶之源啊

    为啥这么说呢?

    有人要补档,于是我就补了

    使用道具 举报

    seku
    炎夏

    梦幻天使
    UID:54889
    头衔:沉浸在纯音中的半恢复型Forneus
    精华:1
    主题:728
    帖子:10982
    威望:21107
    天使币:8128
    宣传度:329
    天然°:3822
    腹黑°:2833
    精灵:55
    光羽:0
    阅读权限:130
    注册时间:2011-6-12
    来自:现实与幻想的乐园
    状态: 不在线

  • TA的每日心情
    慵懒

    签到天数: 220天[LV.9]以坛为家II

  • seku 发表于 2014-12-7 15:13:42 |显示全部楼层
    夸克和胶子 发表于 2014-12-7 15:07
    为啥这么说呢?

    有人要补档,于是我就补了

    就是这碟的出现吊足了胃口,因为仅仅是NONSTOP MIX而已并非完整版,promise、Innocence、moon这些当时的超人气曲目的完整版都只能从P主的个人碟里收。

    使用道具 举报

    夸克和胶子
    米拉

    LEVEL 9 造物者
    UID:240953
    精华:85
    主题:516
    帖子:16785
    威望:122834
    天使币:31106
    宣传度:48799
    天然°:17791
    腹黑°:16464
    精灵:907
    光羽:0
    阅读权限:140
    注册时间:2012-3-31
    状态: 不在线

  • TA的每日心情
    难过

    签到天数: 553天[LV.Master]伴坛终老

  • 夸克和胶子 发表于 2014-12-7 15:16:10 |显示全部楼层
    seku 发表于 2014-12-7 15:13
    就是这碟的出现吊足了胃口,因为仅仅是NONSTOP MIX而已并非完整版,promise、Innocence、moon这些当时的超 ...

    哦~没有像上次那个自抓一样不应该存在的理由就好~

    窝也觉得这碟子有点“蛋疼”呢。。

    使用道具 举报

    seku
    炎夏

    梦幻天使
    UID:54889
    头衔:沉浸在纯音中的半恢复型Forneus
    精华:1
    主题:728
    帖子:10982
    威望:21107
    天使币:8128
    宣传度:329
    天然°:3822
    腹黑°:2833
    精灵:55
    光羽:0
    阅读权限:130
    注册时间:2011-6-12
    来自:现实与幻想的乐园
    状态: 不在线

  • TA的每日心情
    慵懒

    签到天数: 220天[LV.9]以坛为家II

  • seku 发表于 2014-12-7 15:33:15 |显示全部楼层
    夸克和胶子 发表于 2014-12-7 15:16
    哦~没有像上次那个自抓一样不应该存在的理由就好~

    窝也觉得这碟子有点“蛋疼”呢。。

    别这样黑咱好吧,国人的砖确实不应该大摇大摆的发出来

    使用道具 举报

    夸克和胶子
    米拉

    LEVEL 9 造物者
    UID:240953
    精华:85
    主题:516
    帖子:16785
    威望:122834
    天使币:31106
    宣传度:48799
    天然°:17791
    腹黑°:16464
    精灵:907
    光羽:0
    阅读权限:140
    注册时间:2012-3-31
    状态: 不在线

  • TA的每日心情
    难过

    签到天数: 553天[LV.Master]伴坛终老

  • 夸克和胶子 发表于 2014-12-7 15:34:48 |显示全部楼层
    seku 发表于 2014-12-7 15:33
    别这样黑咱好吧,国人的砖确实不应该大摇大摆的发出来

    才不是黑捏~大感谢提醒的说~咪啪~

    使用道具 举报

    back1212145
    初音控

    梦幻天使
    UID:1032099
    精华:0
    主题:27
    帖子:3118
    威望:3681
    天使币:11201
    宣传度:453
    天然°:109
    腹黑°:59
    精灵:0
    光羽:0
    阅读权限:130
    注册时间:2014-7-12
    来自:台灣
    状态: 不在线

  • TA的每日心情
    开心

    签到天数: 1799天[LV.Master]伴坛终老

  • back1212145 发表于 2014-12-7 15:35:31 |显示全部楼层
    如果TTA格式自己轉乘FLAC可以? 會損音質?

    使用道具 举报

    seku
    炎夏

    梦幻天使
    UID:54889
    头衔:沉浸在纯音中的半恢复型Forneus
    精华:1
    主题:728
    帖子:10982
    威望:21107
    天使币:8128
    宣传度:329
    天然°:3822
    腹黑°:2833
    精灵:55
    光羽:0
    阅读权限:130
    注册时间:2011-6-12
    来自:现实与幻想的乐园
    状态: 不在线

  • TA的每日心情
    慵懒

    签到天数: 220天[LV.9]以坛为家II

  • seku 发表于 2014-12-7 15:35:38 |显示全部楼层
    唔,如果你感觉我是有些多管闲事的话那我以后就不吱声了,毕竟我也没多少立场在这了

    使用道具 举报

    夸克和胶子
    米拉

    LEVEL 9 造物者
    UID:240953
    精华:85
    主题:516
    帖子:16785
    威望:122834
    天使币:31106
    宣传度:48799
    天然°:17791
    腹黑°:16464
    精灵:907
    光羽:0
    阅读权限:140
    注册时间:2012-3-31
    状态: 不在线

  • TA的每日心情
    难过

    签到天数: 553天[LV.Master]伴坛终老

  • 夸克和胶子 发表于 2014-12-7 15:36:59 |显示全部楼层
    seku 发表于 2014-12-7 15:35
    唔,如果你感觉我是有些多管闲事的话那我以后就不吱声了,毕竟我也没多少立场在这了

    才不是呢,为什么会这么想呢~?

    各种地方,还请大大多多指教~

    使用道具 举报

    您需要登录后才可以回帖 登录 | 注册

    加天使同城QQ群,有威望奖励~

    回顶部