快捷导航
查看: 2057|回复: 109

[音乐] [百度][自抓自扫][EAC][120829]ODDS&ENDS/Sky of Beginning(初回生産限定盤B)[WAV+LOG+BK+DVDISO+MDS][237M+482M]更新DVDISO [复制链接]

okok1399

梦幻天使
UID:118653
头衔:GOD
精华:0
主题:52
帖子:493
威望:2612
天使币:15365
宣传度:482
天然°:565
腹黑°:515
精灵:30
光羽:0
阅读权限:130
注册时间:2011-10-29
状态: 不在线

  • TA的每日心情
    无聊

    签到天数: 108天[LV.7]常住居民III

  • okok1399 发表于 2012-9-16 14:00:40 |显示全部楼层
    本帖最后由 okok1399 于 2012-9-30 18:12 编辑

    等了十几天碟子到了,今天到外面店去扫图3元一张。坑爹,扫得也不怎么好!Weekender Girl的BK也扫了,没时间就传了一个,等下星期吧!DVDISO的坑终于填了!
    登録情報
    • CD (2012/8/29)
    • ディスク枚数: 1
    • フォーマット: Single, CD+DVD, Limited Edition, Maxi
    • レーベル: ソニー・ミュージックダイレクト
    • 収録時間: 21 分
    • ASIN: B008CQCBSS

    ディスク:1
    1. ODDS&ENDS
    2. Sky of Beginning
    3. ODDS&ENDS (Instrumental)
    4. Sky of Beginning (Instrumental)
    ディスク:2
    1. ODDS&ENDS (Music Video)
    2. Sky of Beginning (Music Video-Edit Version) 商品の説明内容紹介SEGAの大人気ゲームソフト『初音ミク -Project  DIVA-』シリーズのテーマソング  を『こっち向いてBaby』『積乱雲グラフィティ』と2作続けてryo(supercell)が手掛けましたが、今年8月30日に発売予定のシリーズ最新作『初音ミク-Project  DIVA- f』オープニングテーマも、ryo(supercell)が手掛けます !一年振りの『ryo(supercell)  feat.初音ミク』名義の新曲『ODD&ENDS』は、ファン待望の1曲であり、話題になる事間違いありません!そして前々作『kz(livetune)』、前作『Dixie  Flatline 』に続き、現在話題沸騰、注目度No.1のクリエイター「じん feat.初音ミク」の「Sky of  Beginning」というファンにとっては、夢のスプリットシングルが遂にリリースされます。ジャケットイラストは、前作同様、宇木敦也とのタッグを組みます。アナザージャケットイラストは、月刊コミックジーン連載のじん原作「カゲロウデイズ」の漫画家、佐藤まひろが手掛けます。初回限定盤には、この2曲のミュージックビデオを収録したブルーレイ、DVD仕様があり、さらに今回のジャケットイラストデザインで製作されたオリジナル『初音ミクグラフィグ』を同梱!
    (C)SEGA (C)Crypton Future Media,  Inc
    【初回生産限定盤B】CD+DVD+グッズ(初音ミクオリジナルグラフィグ)
    ※初回限定盤をご希望の場合、単品でのご注文をお願いします。他の商品とあわせてご注文されますと、それらの商品の発送可能時期によりましては、初回特典付をお取り置きできない場合がございますので、ご了承ください。
    ※在庫がなくなり次第終了となります。
    収録曲
    01.ODDS&ENDS / ryo(supercell) feat.初音ミク
    02.Sky of Beginning / じん feat.初音ミク
    03.ODDS&ENDS(Instrumental) / ryo(supercell) feat.初音ミク
    04.Sky of  Beginning(Instrumental) / じん feat.初音ミク


    メディア掲載レビューほか“ryo(supercell) feat. 初音ミク”名義の1年振り(2012年時)となるシングル。Ryo(supercell)が手掛けるタイトル曲は、セガのゲームソフト『初音ミク -Project  DIVA- f』のオープニング・テーマ。 (C)RS              BK预览                                                                                                                                                LOG                                                                                                                                                                                                                                             
    Exact Audio Copy V1.0 beta 3 from 29. August 2011

    EAC 抓取日志文件从16. 九月 2012,
    12:13

    ryo(supercell) feat.初音ミク;  / ODDS&ENDS/Sky of
    Beginning

    使用驱动器  :ASUS    DVD-E818A7T  
    a   Adapter: 0  ID: 0

    读取模式     
    : 可靠Secure
    使用精确流     : 是
    清空音频缓存    :

    使用 C2 指示器 : 否

    组合读写偏移校正:           
      : 0
    读取 Lead-In 和 Lead-Out : 否
    用静音填充抓取中丢失偏移的采样     
      : 是
    去除首尾静音块              
    : 否
    在CRC 计算中使用了空样本       : 是
    已用接口  
                    : Win NT
    及 2000 本地 Win32 接口

    所用输出模式: : 内部 WAV 函数
    样本格式    : 44.100 Hz;
    16 Bit; 立体声


    已抓取 CD 的 TOC

         音轨 |  
      起始    |    长度   
    |  起始扇区  |  结束扇区  
       
    --------------------------------------------
          1
    |  0:00.00 |  5:36.45 |      0
    |  25244
          2 |  5:36.45
    |  4:42.29 |  25245 |  46423
      
        3 | 10:18.74 |  5:36.45 |  46424
    |  71668
          4 | 15:55.44
    |  4:39.18 |  71669 |  92611



    范围状态及错误

    已选择范围

         文件名
    E:\初音\ODDS&ENDS SKY OF BEGINING 自抓\ryo(supercell) feat.初音ミク;  -
    ODDS&ENDS,Sky of Beginning.wav

         峰值电平 99.9
    %
         抓取速度 3.6 X
         范围质量 100.0
    %
         复制 CRC 2801A006
      
       复制成功

    没有错误发生

    状态报告结尾

    ------------------------------------------------------------

    Exact
    Audio Copy V1.0 beta 3 from 29. August 2011

    EAC 抓取日志文件从16. 九月 2012,
    12:13

    ryo(supercell) feat.初音ミク;  / ODDS&ENDS/Sky of
    Beginning

    使用驱动器  :ASUS    DVD-E818A7T  
    a   Adapter: 0  ID: 0

    读取模式     
    : 可靠Secure
    使用精确流     : 是
    清空音频缓存    :

    使用 C2 指示器 : 否

    组合读写偏移校正:           
      : 0
    读取 Lead-In 和 Lead-Out : 否
    用静音填充抓取中丢失偏移的采样     
      : 是
    去除首尾静音块              
    : 否
    在CRC 计算中使用了空样本       : 是
    已用接口  
                    : Win NT
    及 2000 本地 Win32 接口

    所用输出模式: : 内部 WAV 函数
    样本格式    : 44.100 Hz;
    16 Bit; 立体声


    已抓取 CD 的 TOC

         音轨 |  
      起始    |    长度   
    |  起始扇区  |  结束扇区  
       
    --------------------------------------------
          1
    |  0:00.00 |  5:36.45 |      0
    |  25244
          2 |  5:36.45
    |  4:42.29 |  25245 |  46423
      
        3 | 10:18.74 |  5:36.45 |  46424
    |  71668
          4 | 15:55.44
    |  4:39.18 |  71669 |  92611



    范围状态及错误

    已选择范围

         文件名
    E:\初音\ODDS&ENDS SKY OF BEGINING 自抓\ryo(supercell) feat.初音ミク;  -
    ODDS&ENDS,Sky of Beginning.wav

         峰值电平 99.9
    %
         抓取速度 3.6 X
         范围质量 100.0
    %
         复制 CRC 2801A006
      
       复制成功

    没有错误发生

    状态报告结尾


    下载地址:
    游客,如果您要查看本帖隐藏内容请回复(Vistor, reply to read the hidden content.) (ゲスト様、隠れた内容を読むためには、文章に返信してください。)





    已有 1 人评分威望 天使币 天然 精灵 收起 理由
    julin2009 + 30 + 100 + 5 + 1 感谢分享~~

    总评分: 威望 + 30  天使币 + 100  天然 + 5  精灵 + 1   查看全部评分

    Xinicole

    LEVEL 5 美德
    UID:164148
    头衔:病娇萝莉~喵~
    精华:0
    主题:0
    帖子:3146
    威望:3039
    天使币:24
    宣传度:1
    天然°:0
    腹黑°:0
    精灵:0
    光羽:0
    阅读权限:45
    注册时间:2012-1-7
    状态: 不在线

  • TA的每日心情
    开心

    签到天数: 274天[LV.10]以坛为家III

  • Xinicole 发表于 2012-9-16 14:14:03 |显示全部楼层
    感谢分享~~~
    なぁ……私が生きてたこと、覚えていてくれるか?

    使用道具 举报

    枫灬雪彡
    Asuka_Hiyori

    LEVEL 4 睿智
    UID:286960
    精华:0
    主题:1
    帖子:2230
    威望:2309
    天使币:5531
    宣传度:6
    天然°:0
    腹黑°:0
    精灵:0
    光羽:0
    阅读权限:40
    注册时间:2012-5-15
    状态: 不在线

  • TA的每日心情
    开心

    签到天数: 939天[LV.Master]伴坛终老

  • 枫灬雪彡 发表于 2012-9-16 14:26:18 |显示全部楼层
    升级
    感谢分享!~

    使用道具 举报

    msnk

    LEVEL 5 美德
    UID:29411
    精华:0
    主题:2
    帖子:3141
    威望:3136
    天使币:2688
    宣传度:0
    天然°:0
    腹黑°:0
    精灵:0
    光羽:0
    阅读权限:45
    注册时间:2011-3-26
    状态: 不在线

  • TA的每日心情
    难过

    签到天数: 1天[LV.1]初来乍到

  • msnk 发表于 2012-9-16 14:46:35 |显示全部楼层
    谢谢分享

    使用道具 举报

    uhyftt

    LEVEL 6 圣洁
    UID:58438
    精华:0
    主题:26
    帖子:4202
    威望:4128
    天使币:2540
    宣传度:222
    天然°:223
    腹黑°:221
    精灵:14
    光羽:0
    阅读权限:50
    注册时间:2011-6-23
    状态: 不在线

  • TA的每日心情
    开心

    签到天数: 1839天[LV.Master]伴坛终老

  • uhyftt 发表于 2012-9-16 14:54:58 |显示全部楼层
    怨念的BK终于有了~~感谢楼主

    使用道具 举报

    ldsg5211314
    猪君

    梦幻天使
    UID:5951
    精华:0
    主题:1
    帖子:88
    威望:484
    天使币:1549
    宣传度:50
    天然°:10
    腹黑°:0
    精灵:0
    光羽:0
    阅读权限:130
    注册时间:2011-1-1
    来自:上海
    状态: 不在线

  • TA的每日心情
    奋斗

    签到天数: 43天[LV.5]常住居民I

  • ldsg5211314 发表于 2012-9-16 14:56:02 |显示全部楼层
    谢谢分享

    使用道具 举报

    5504483

    LEVEL 9 造物者
    UID:7366
    精华:0
    主题:0
    帖子:9413
    威望:6455
    天使币:2022
    宣传度:13
    天然°:137
    腹黑°:137
    精灵:0
    光羽:0
    阅读权限:70
    注册时间:2011-1-12
    状态: 不在线

  • TA的每日心情
    开心

    签到天数: 40天[LV.5]常住居民I

  • 5504483 发表于 2012-9-16 14:58:08 |显示全部楼层
    谢谢分享,辛苦了~

    使用道具 举报

    asdfghj

    LEVEL 3 POWER
    UID:45772
    头衔:中国第一伸手党
    精华:0
    主题:1
    帖子:822
    威望:662
    天使币:409
    宣传度:1
    天然°:0
    腹黑°:0
    精灵:0
    光羽:0
    阅读权限:25
    注册时间:2011-5-13
    状态: 不在线

  • TA的每日心情
    擦汗

    签到天数: 16天[LV.4]偶尔看看III

  • asdfghj 发表于 2012-9-16 15:06:22 |显示全部楼层
    感谢分享

    使用道具 举报

    inin

    禁止发言
    UID:25714
    精华:0
    主题:0
    帖子:216
    威望:218
    天使币:159
    宣传度:0
    天然°:0
    腹黑°:0
    精灵:0
    光羽:0
    阅读权限:0
    注册时间:2011-3-17
    状态: 不在线

    该用户从未签到

    inin 发表于 2012-9-16 15:24:34 |显示全部楼层
    感謝分享!!!

    使用道具 举报

    Xinicole

    LEVEL 5 美德
    UID:164148
    头衔:病娇萝莉~喵~
    精华:0
    主题:0
    帖子:3146
    威望:3039
    天使币:24
    宣传度:1
    天然°:0
    腹黑°:0
    精灵:0
    光羽:0
    阅读权限:45
    注册时间:2012-1-7
    状态: 不在线

  • TA的每日心情
    开心

    签到天数: 274天[LV.10]以坛为家III

  • Xinicole 发表于 2012-9-16 15:59:09 |显示全部楼层
    感谢分享~~~
    なぁ……私が生きてたこと、覚えていてくれるか?

    使用道具 举报

    您需要登录后才可以回帖 登录 | 注册

    加天使同城QQ群,有威望奖励~

    回顶部