快捷导航
查看: 4028|回复: 9

[视频] [百度/阿里]魔法未来2021/MAGICAL MIRAI2021/マジカルミライ2021[BDRip][HEVC_10bit_59.94fps_PCM_DTS][自制外挂双语字幕][24.6GB]

子猫のパヤパヤ
子猫

LEVEL 3 POWER
UID:838049
精华:0
主题:16
帖子:922
威望:3092
天使币:16906
宣传度:327
天然°:530
腹黑°:509
精灵:21
占星石:0
阅读权限:45
注册时间:2013-10-26
状态: 不在线

  • TA的每日心情
    开心

    签到天数: 843天[LV.Master]伴坛终老

  • 子猫のパヤパヤ 发表于 2022-4-3 22:06:10 |显示全部楼层
    我又来了

    抄一下去年的说明



    视频部分采用HEVC 10bit
    针对不同的视频用了不同的参数压制,省时又美丽()
    视频进行了一定的降噪、去色带、锐化处理
    音频保留不动
    封入了自制的双语字幕,打开即可享受有字幕的视频~


    在正片的字幕中加了一点点小图画,去找找看吧~



    同时单字幕文件也有打包,可以直接拖入BD进行播放
    其中正片在BD中分成两部分,需要合起来才能用



    内含物见下图,东西很多,依旧做了张图



    General
    Unique ID                                : 196789425047741807424660795332879706365 (0x940C43BFB285321692EE11209287E8FD)
    Complete name                            : E:VOCALOID演唱会2021魔法未来Rip本编01.Magical Mirai 2021.mkv
    Format                                   : Matroska
    Format version                           : Version 4
    File size                                : 14.8 GiB
    Duration                                 : 2 h 2 min
    Overall bit rate mode                    : Variable
    Overall bit rate                         : 17.3 Mb/s
    Encoded date                             : UTC 2022-04-03 09:01:17
    Writing application                      : mkvmerge v9.6.0 ('Slave To Your Mind') 32bit
    Writing library                          : libebml v1.3.4 + libmatroska v1.4.5

    Video
    ID                                       : 1
    Format                                   : HEVC
    Format/Info                              : High Efficiency Video Coding
    Format profile                           : Main 10@L4.1@Main
    Codec ID                                 : V_MPEGH/ISO/HEVC
    Duration                                 : 2 h 2 min
    Bit rate                                 : 10.1 Mb/s
    Width                                    : 1 920 pixels
    Height                                   : 1 080 pixels
    Display aspect ratio                     : 16:9
    Frame rate mode                          : Constant
    Frame rate                               : 59.940 (60000/1001) FPS
    Color space                              : YUV
    Chroma subsampling                       : 4:2:0
    Bit depth                                : 10 bits
    Bits/(Pixel*Frame)                       : 0.081
    Stream size                              : 8.62 GiB (58%)
    Writing library                          : x265 3.0_Au+4-dcbec33bfb0f:[Windows][GCC 8.2.1][64 bit] 10bit
    Encoding settings                        : cpuid=1111039 / frame-threads=3 / numa-pools=12 / wpp / no-pmode / no-pme / no-psnr / no-ssim / log-level=2 / input-csp=1 / input-res=1920x1080 / interlace=0 / total-frames=439500 / level-idc=0 / high-tier=1 / uhd-bd=0 / ref=4 / no-allow-non-conformance / no-repeat-headers / annexb / no-aud / no-hrd / info / hash=0 / no-temporal-layers / no-open-gop / min-keyint=1 / keyint=360 / gop-lookahead=0 / bframes=8 / b-adapt=2 / b-pyramid / bframe-bias=0 / rc-lookahead=40 / lookahead-slices=0 / scenecut=40 / radl=0 / no-splice / no-intra-refresh / ctu=64 / min-cu-size=8 / rect / amp / max-tu-size=32 / tu-inter-depth=3 / tu-intra-depth=3 / limit-tu=4 / rdoq-level=2 / dynamic-rd=0.00 / no-ssim-rd / signhide / no-tskip / nr-intra=0 / nr-inter=0 / no-constrained-intra / strong-intra-smoothing / max-merge=4 / limit-refs=1 / limit-modes / me=3 / subme=4 / merange=57 / temporal-mvp / weightp / weightb / no-analyze-src-pics / deblock=-1:-1 / no-sao / no-sao-non-deblock / rd=6 / no-early-skip / rskip / no-fast-intra / no-tskip-fast / no-cu-lossless / b-intra / no-splitrd-skip / rdpenalty=0 / psy-rd=2.00 / psy-rdoq=1.00 / no-rd-refine / no-lossless / cbqpoffs=0 / crqpoffs=0 / rc=crf / crf=16.0 / qcomp=0.60 / qpstep=4 / stats-write=0 / stats-read=0 / ipratio=1.40 / pbratio=1.30 / aq-mode=1 / aq-strength=1.00 / cutree / zone-count=0 / no-strict-cbr / qg-size=32 / no-rc-grain / qpmax=69 / qpmin=0 / no-const-vbv / sar=1 / overscan=0 / videoformat=5 / range=0 / colorprim=2 / transfer=2 / colormatrix=2 / chromaloc=0 / display-window=0 / max-cll=0,0 / min-luma=0 / max-luma=1023 / log2-max-poc-lsb=8 / vui-timing-info / vui-hrd-info / slices=1 / no-opt-qp-pps / no-opt-ref-list-length-pps / no-multi-pass-opt-rps / scenecut-bias=0.05 / no-opt-cu-delta-qp / no-aq-motion / no-hdr / no-hdr-opt / no-dhdr10-opt / no-idr-recovery-sei / analysis-reuse-level=5 / scale-factor=0 / refine-intra=0 / refine-inter=0 / refine-mv=0 / refine-ctu-distortion=0 / no-limit-sao / ctu-info=0 / no-lowpass-dct / refine-anal
    ysis-type=0 / copy-pic=1 / max-ausize-factor=1.0 / no-dynamic-refine / no-single-sei / no-hevc-aq / qp-adaptation-range=1.00
    Language                                 : Japanese
    Default                                  : Yes
    Forced                                   : No

    Audio #1
    ID                                       : 2
    Format                                   : PCM
    Format settings                          : Little / Signed
    Codec ID                                 : A_PCM/INT/LIT
    Duration                                 : 2 h 2 min
    Bit rate mode                            : Constant
    Bit rate                                 : 2 304 kb/s
    Channel(s)                               : 2 channels
    Sampling rate                            : 48.0 kHz
    Frame rate                               : 32.000 FPS (1500 SPF)
    Bit depth                                : 24 bits
    Stream size                              : 1.97 GiB (13%)
    Language                                 : Japanese
    Default                                  : Yes
    Forced                                   : No

    Audio #2
    ID                                       : 3
    Format                                   : DTS XLL
    Format/Info                              : Digital Theater Systems
    Commercial name                          : DTS-HD Master Audio
    Codec ID                                 : A_DTS
    Duration                                 : 2 h 2 min
    Bit rate mode                            : Variable
    Bit rate                                 : 4 896 kb/s
    Channel(s)                               : 6 channels
    Channel layout                           : C L R Ls Rs LFE
    Sampling rate                            : 48.0 kHz
    Frame rate                               : 93.750 FPS (512 SPF)
    Bit depth                                : 24 bits
    Compression mode                         : Lossless
    Stream size                              : 4.18 GiB (28%)
    Language                                 : Japanese
    Default                                  : No
    Forced                                   : No

    Text #1
    ID                                       : 4
    Format                                   : PGS
    Muxing mode                              : zlib
    Codec ID                                 : S_HDMV/PGS
    Codec ID/Info                            : Picture based subtitle format used on BDs/HD-DVDs
    Duration                                 : 1 h 58 min
    Bit rate                                 : 22.1 kb/s
    Count of elements                        : 1937
    Stream size                              : 18.7 MiB (0%)
    Language                                 : Multiple languages
    Default                                  : Yes
    Forced                                   : No

    Text #2
    ID                                       : 5
    Format                                   : PGS
    Muxing mode                              : zlib
    Codec ID                                 : S_HDMV/PGS
    Codec ID/Info                            : Picture based subtitle format used on BDs/HD-DVDs
    Duration                                 : 1 h 56 min
    Bit rate                                 : 9 175 b/s
    Count of elements                        : 2304
    Stream size                              : 7.66 MiB (0%)
    Language                                 : Japanese
    Default                                  : No
    Forced                                   : No

    Menu
    00:00:00.000                             : :01.Open
    00:01:46.072                             : :02.ダーリンダンス / かいりきベア feat. 初音ミク
    00:05:10.343                             : :03.脳内革命ガール / MARETU feat. 初音ミク
    00:08:52.732                             : :04.MC1
    00:09:31.904                             : :05.テレキャスタービーボーイ / すりぃ feat. 鏡音レン
    00:12:19.605                             : :06.テルミーアンサー / キノシタ feat. 鏡音リン
    00:15:30.996                             : :07.Parades / whoo feat. 初音ミク
    00:20:13.011                             : :08.Loading1
    00:20:45.911                             : :09.恋色病棟 / OSTER project feat. 初音ミク
    00:24:07.846                             : :10.ヒビカセ / GigaReol feat. 初音ミク
    00:28:29.074                             : :11.Loading2
    00:29:00.905                             : :12.星空クロノグラフ / MINO-U feat. MEIKO
    00:33:22.433                             : :13.ダブルラリアット / アゴアニキ feat. 巡音ルカ
    00:36:55.746                             : :14.First Note / blues feat. 初音ミク
    00:41:33.257                             : :15.MC2
    00:42:02.286                             : :16.KAITO 15th Anniversary
    00:43:05.182                             : :17.Pane dhiria / 新城P feat. KAITO
    00:46:17.374                             : :18.あったかいと / halyosy feat. KAITO
    00:50:19.583                             : :19.サンドリヨン / Dios/シグナルP feat. KAITO?初音ミク
    00:55:04.234                             : :20.on the rocks / OSTER project feat. MEIKO?KAITO
    00:59:30.433                             : :21.MC3
    01:00:17.180                             : :22.レイニースノードロップ / Re:nG feat. KAITO
    01:04:23.860                             : :23.ある計画は今も密かに / 森羅 feat. 初音ミク
    01:08:46.722                             : :24.BAND MEMBRS
    01:11:16.739                             : :25.二息歩行 / DECO*27 feat. 初音ミク
    01:14:25.761                             : :26.METEOR / DIVELA feat. 初音ミク
    01:19:03.772                             : :27.インタビュア / クワガタP feat. 巡音ルカ
    01:23:38.146                             : :28.Loading3
    01:24:07.809                             : :29.ワールドイズマイン / ryo (supercell) feat. 初音ミク
    01:28:23.598                             : :30.リモコン / じーざす(ワンダフル☆オポチュニティ!) feat. 鏡音リン?鏡音レン
    01:33:42.350                             : :31.Last Song
    01:34:33.367                             : :32.Tell Your World / livetune feat. 初音ミク
    01:39:01.201                             : :33.encore
    01:40:47.174                             : :34.愛されなくても君がいる / ピノキオピー feat. 初音ミク
    01:45:27.487                             : :35.Hand in Hand / livetune feat. 初音ミク
    01:51:11.765                             : :36.MC4
    01:51:48.201                             : :37.初音天地開闢神話 / cosMo@暴走P feat. 初音ミク
    01:56:20.306                             : :38.MC5
    01:58:57.230                             : :39.End







    预览图





    下面是说明

    1、部分MC的翻译我听着写的,可能有错,以你听的为准(
    2、因为没有校对,可能会存在一些错误,可以给我反馈,我收集整理后统一改一下
    3、字幕为SUP格式,如果播放器不支持请换播放器
    4、该系列视频推荐使用电脑观看,移动设备SUP字幕支持可能稍微不够完美
    5、度盘是加密压缩包,阿里是单文件,自己选择


    在线观看
    【【双语字幕】魔法未来2021/マジカルミライ2021 BDRip-哔哩哔哩】
    https://b23.tv/2QNrF14
    不确定炸不炸,至少发的时候没炸

    下面是喜闻乐见的链接

    prophet123
    prophet( *・ω・)✄╰ひ╯

    梦幻天使
    UID:724668
    精华:0
    主题:2
    帖子:1489
    威望:2575
    天使币:7319
    宣传度:114
    天然°:55
    腹黑°:55
    精灵:0
    占星石:0
    阅读权限:130
    注册时间:2013-6-19
    来自:上海
    状态: 不在线

  • TA的每日心情
    奋斗

    签到天数: 1096天[LV.Master]伴坛终老

  • prophet123 发表于 2022-4-3 22:27:53 |显示全部楼层
    多谢子猫大大!!
    升级

    使用道具 举报

    子猫のパヤパヤ
    子猫

    LEVEL 3 POWER
    UID:838049
    精华:0
    主题:16
    帖子:922
    威望:3092
    天使币:16906
    宣传度:327
    天然°:530
    腹黑°:509
    精灵:21
    占星石:0
    阅读权限:45
    注册时间:2013-10-26
    状态: 不在线

  • TA的每日心情
    开心

    签到天数: 843天[LV.Master]伴坛终老

  • 子猫のパヤパヤ 发表于 2022-4-3 22:51:43 |显示全部楼层
    prophet123 发表于 2022-4-3 22:27
    多谢子猫大大!!{:4_131:}

    你真快啊

    使用道具 举报

    aLu233
    阿Lu

    LEVEL 2 升华
    UID:2006893
    精华:0
    主题:0
    帖子:236
    威望:240
    天使币:2092
    宣传度:0
    天然°:0
    腹黑°:0
    精灵:0
    占星石:0
    阅读权限:15
    注册时间:2021-3-22
    来自:湖北武汉
    状态: 不在线

  • TA的每日心情
    开心

    签到天数: 230天[LV.9]以坛为家II

  • 感謝分享

    使用道具 举报

    explode
    绿光小夜曲

    LEVEL 1 断罪
    UID:1933457
    精华:0
    主题:1
    帖子:75
    威望:107
    天使币:592
    宣传度:0
    天然°:2
    腹黑°:2
    精灵:0
    占星石:0
    阅读权限:15
    注册时间:2020-1-22
    来自:广东
    状态: 不在线

  • TA的每日心情
    开心

    签到天数: 44天[LV.5]常住居民I

  • explode 发表于 2022-4-4 11:37:15 |显示全部楼层
    谢谢,要是有BD就好了

    使用道具 举报

    本帝
    有事请论坛PM/+微信

    版主
    UID:246760
    精华:0
    主题:587
    帖子:6826
    威望:30426
    天使币:26860
    宣传度:82678
    天然°:7566
    腹黑°:6371
    精灵:324
    占星石:0
    阅读权限:150
    注册时间:2012-4-5
    状态: 不在线

  • TA的每日心情
    无聊

    签到天数: 798天[LV.Master]伴坛终老

  • 本帝 发表于 2022-4-4 16:11:34 |显示全部楼层
    优秀!给你设置了收费
    もう二度と会えない,なんて信じられない,まだ何も伝えていない,まだ何も伝えていない

    使用道具 举报

    mousewat26
    mouse

    梦幻天使★
    UID:2078081
    精华:0
    主题:2
    帖子:75
    威望:1271
    天使币:10420
    宣传度:200
    天然°:105
    腹黑°:105
    精灵:0
    占星石:0
    阅读权限:135
    注册时间:2022-4-8
    状态: 不在线

  • TA的每日心情

    签到天数: 46天[LV.5]常住居民I

  • mousewat26 发表于 2022-4-10 00:16:40 |显示全部楼层
    感謝分享

    使用道具 举报

    mousewat26
    mouse

    梦幻天使★
    UID:2078081
    精华:0
    主题:2
    帖子:75
    威望:1271
    天使币:10420
    宣传度:200
    天然°:105
    腹黑°:105
    精灵:0
    占星石:0
    阅读权限:135
    注册时间:2022-4-8
    状态: 不在线

  • TA的每日心情

    签到天数: 46天[LV.5]常住居民I

  • mousewat26 发表于 2022-4-10 00:16:53 |显示全部楼层
    感謝分享

    使用道具 举报

    YIRS

    梦幻天使
    UID:1849610
    精华:0
    主题:1
    帖子:71
    威望:348
    天使币:1524
    宣传度:50
    天然°:10
    腹黑°:0
    精灵:0
    占星石:0
    阅读权限:130
    注册时间:2019-3-14
    状态: 不在线

  • TA的每日心情
    开心

    签到天数: 48天[LV.5]常住居民I

  • YIRS 发表于 2022-4-21 21:31:46 |显示全部楼层
    不知道楼主有没有考虑去u2发一个?

    使用道具 举报

    Waluxs

    LEVEL 3 POWER
    UID:1753160
    精华:0
    主题:9
    帖子:884
    威望:2732
    天使币:6084
    宣传度:23
    天然°:2105
    腹黑°:2105
    精灵:0
    占星石:88
    阅读权限:40
    注册时间:2018-7-19
    状态: 不在线

    玛狃拉 Lv. 20

  • TA的每日心情
    开心

    签到天数: 683天[LV.Master]伴坛终老

  • Waluxs 发表于 2022-8-18 13:52:48 |显示全部楼层
    感谢分享!

    使用道具 举报

    您需要登录后才可以回帖 登录 | 注册

    加天使同城QQ群,有威望奖励~

    回顶部