背景音乐
动漫∨
goseiba525

LEVEL 2 升华
UID:66877
精华:0
主题:44
帖子:492
威望:7837
天使币:33612
宣传度:489
天然°:2072
腹黑°:2072
精灵:86
逗猫棒:0
阅读权限:90
注册时间:2011-7-11
状态: 不在线

  • TA的每日心情
    奋斗

    签到天数: 33天[LV.5]常住居民I

  • goseiba525 发表于 2022-1-17 19:08:53 |显示全部楼层


    基本信息
    包装尺寸 ‏ : ‎ 14.2 x 12.5 x 2.4 cm; 170 克
    制造商 ‏ : ‎ エイベックス・ピクチャーズ株式会社(Music)
    条形码 ‏ : ‎ 4580055355813
    时间 ‏ : ‎ 3 小时 and 39 分钟
    标签 ‏ : ‎ エイベックス・ピクチャーズ株式会社(Music)

    内容紹介

    大人気シリーズの「Super Eurobeat presents 頭文字D Dream Collection」の
    ベスト盤! Vol.1~5のセレクション&新曲によるノンストップリミックスを収録!

    【収録内容】
    DISC1 : 新曲含むノンストップベストリミックス
    DISC2 : DISC1の新曲およびドリコレVol.1からのエクステンデッドベスト
    DISC3 : TVシリーズで使われた楽曲裏ベスト

    収録内容・商品内容は予定となります。
    予告なく変更になる場合もございますので、ご了承下さい。

    ★ポイント★
    1大人気シリーズ「SUPER EUROBEAT presents 頭文字[イニシャル]D」のベスト盤!
    2AL3枚組の大ボリューム!
    3定番曲から新曲まで、ユーロビートファンも必携の商品!

    自抓log
    Exact Audio Copy V1.5 from 20. February 2020

    EAC extraction logfile from 15. January 2022, 21:39

    V.A. / SUPER EUROBEAT presents 頭文字[イニシャル]D THE BEST OF DREAM COLLECTION DISC1: BEST OF NON STOP REMIX

    Used drive  : PIONEER BD-ROM  BDC-207   Adapter: 1  ID: 0

    Read mode               : Secure
    Utilize accurate stream : Yes
    Defeat audio cache      : Yes
    Make use of C2 pointers : No

    Read offset correction                      : 667
    Overread into Lead-In and Lead-Out          : No
    Fill up missing offset samples with silence : Yes
    Delete leading and trailing silent blocks   : No
    Null samples used in CRC calculations       : Yes
    Used interface                              : Native Win32 interface for Win NT & 2000

    Used output format : Internal WAV Routines
    Sample format      : 44.100 Hz; 16 Bit; Stereo


    TOC of the extracted CD

         Track |   Start  |  Length  | Start sector | End sector
        ---------------------------------------------------------
            1  |  0:00.00 |  3:10.65 |         0    |    14314   
            2  |  3:10.65 |  2:25.44 |     14315    |    25233   
            3  |  5:36.34 |  2:34.49 |     25234    |    36832   
            4  |  8:11.08 |  2:19.44 |     36833    |    47301   
            5  | 10:30.52 |  2:01.65 |     47302    |    56441   
            6  | 12:32.42 |  2:06.41 |     56442    |    65932   
            7  | 14:39.08 |  2:41.33 |     65933    |    78040   
            8  | 17:20.41 |  2:38.31 |     78041    |    89921   
            9  | 19:58.72 |  2:36.74 |     89922    |   101695   
           10  | 22:35.71 |  2:24.66 |    101696    |   112561   
           11  | 25:00.62 |  2:13.33 |    112562    |   122569   
           12  | 27:14.20 |  2:06.11 |    122570    |   132030   
           13  | 29:20.31 |  2:36.40 |    132031    |   143770   
           14  | 31:56.71 |  2:09.02 |    143771    |   153447   
           15  | 34:05.73 |  2:41.74 |    153448    |   165596   
           16  | 36:47.72 |  2:08.74 |    165597    |   175270   
           17  | 38:56.71 |  2:21.73 |    175271    |   185918   
           18  | 41:18.69 |  2:44.29 |    185919    |   198247   
           19  | 44:03.23 |  2:33.20 |    198248    |   209742   
           20  | 46:36.43 |  2:06.38 |    209743    |   219230   
           21  | 48:43.06 |  2:32.18 |    219231    |   230648   
           22  | 51:15.24 |  2:10.68 |    230649    |   240466   
           23  | 53:26.17 |  2:06.11 |    240467    |   249927   
           24  | 55:32.28 |  2:36.49 |    249928    |   261676   
           25  | 58:09.02 |  2:30.72 |    261677    |   272998   
           26  | 60:39.74 |  2:50.10 |    272999    |   285758   
           27  | 63:30.09 |  2:45.69 |    285759    |   298202   
           28  | 66:16.03 |  2:19.53 |    298203    |   308680   
           29  | 68:35.56 |  2:15.55 |    308681    |   318860   
           30  | 70:51.36 |  3:41.67 |    318861    |   335502   


    Range status and errors

    Selected range

         Filename I:\V.A. - SUPER EUROBEAT presents 頭文字[イニシャル]D THE BEST OF DREAM COLLECTION DISC1- BEST OF NON STOP REMIX.wav

         Peak level 96.4 %
         Extraction speed 8.2 X
         Range quality 99.9 %
         Copy CRC 0B95F121
         Copy OK

    No errors occurred


    AccurateRip summary

    Track  1  not present in database
    Track  2  not present in database
    Track  3  not present in database
    Track  4  not present in database
    Track  5  not present in database
    Track  6  not present in database
    Track  7  not present in database
    Track  8  not present in database
    Track  9  not present in database
    Track 10  not present in database
    Track 11  not present in database
    Track 12  not present in database
    Track 13  not present in database
    Track 14  not present in database
    Track 15  not present in database
    Track 16  not present in database
    Track 17  not present in database
    Track 18  not present in database
    Track 19  not present in database
    Track 20  not present in database
    Track 21  not present in database
    Track 22  not present in database
    Track 23  not present in database
    Track 24  not present in database
    Track 25  not present in database
    Track 26  not present in database
    Track 27  not present in database
    Track 28  not present in database
    Track 29  not present in database
    Track 30  not present in database

    None of the tracks are present in the AccurateRip database

    End of status report

    ---- CUETools DB Plugin V2.1.6

    [CTDB TOCID: FM1gdilu4rCp.w0Gc.FLUaoNlSA-] disk not present in database
    Submit result: FM1gdilu4rCp.w0Gc.FLUaoNlSA- has been uploaded


    ==== Log checksum B71674A8F770FF9AB361AB03480C71CB1210B4EF9FD1CD9BFC0BCAE842677A76 ====


    Exact Audio Copy V1.5 from 20. February 2020

    EAC extraction logfile from 15. January 2022, 21:53

    V.A. / SUPER EUROBEAT presents 頭文字[イニシャル]D THE BEST OF DREAM COLLECTION DISC2: BEST OF EXTENDED

    Used drive  : PIONEER BD-ROM  BDC-207   Adapter: 1  ID: 0

    Read mode               : Secure
    Utilize accurate stream : Yes
    Defeat audio cache      : Yes
    Make use of C2 pointers : No

    Read offset correction                      : 667
    Overread into Lead-In and Lead-Out          : No
    Fill up missing offset samples with silence : Yes
    Delete leading and trailing silent blocks   : No
    Null samples used in CRC calculations       : Yes
    Used interface                              : Native Win32 interface for Win NT & 2000

    Used output format : Internal WAV Routines
    Sample format      : 44.100 Hz; 16 Bit; Stereo


    TOC of the extracted CD

         Track |   Start  |  Length  | Start sector | End sector
        ---------------------------------------------------------
            1  |  0:00.00 |  4:16.30 |         0    |    19229   
            2  |  4:16.30 |  5:25.72 |     19230    |    43676   
            3  |  9:42.27 |  4:36.58 |     43677    |    64434   
            4  | 14:19.10 |  4:15.65 |     64435    |    83624   
            5  | 18:35.00 |  4:18.45 |     83625    |   103019   
            6  | 22:53.45 |  5:33.00 |    103020    |   127994   
            7  | 28:26.45 |  5:14.15 |    127995    |   151559   
            8  | 33:40.60 |  4:04.55 |    151560    |   169914   
            9  | 37:45.40 |  4:15.40 |    169915    |   189079   
           10  | 42:01.05 |  5:10.65 |    189080    |   212394   
           11  | 47:11.70 |  5:34.30 |    212395    |   237474   
           12  | 52:46.25 |  4:21.10 |    237475    |   257059   
           13  | 57:07.35 |  5:34.35 |    257060    |   282144   
           14  | 62:41.70 |  5:02.32 |    282145    |   304826   
           15  | 67:44.27 |  4:36.33 |    304827    |   325559   


    Range status and errors

    Selected range

         Filename I:\V.A. - SUPER EUROBEAT presents 頭文字[イニシャル]D THE BEST OF DREAM COLLECTION DISC2- BEST OF EXTENDED.wav

         Peak level 99.8 %
         Extraction speed 8.3 X
         Range quality 100.0 %
         Copy CRC 428DA5A2
         Copy OK

    No errors occurred


    AccurateRip summary

    Track  1  not present in database
    Track  2  not present in database
    Track  3  not present in database
    Track  4  not present in database
    Track  5  not present in database
    Track  6  not present in database
    Track  7  not present in database
    Track  8  not present in database
    Track  9  not present in database
    Track 10  not present in database
    Track 11  not present in database
    Track 12  not present in database
    Track 13  not present in database
    Track 14  not present in database
    Track 15  not present in database

    None of the tracks are present in the AccurateRip database

    End of status report

    ---- CUETools DB Plugin V2.1.6

    [CTDB TOCID: Vd0qsAABQTh2PMVS1_pijei6b0M-] disk not present in database
    Submit result: Vd0qsAABQTh2PMVS1_pijei6b0M- has been uploaded


    ==== Log checksum 53E1BD384118B58872454D3377D25E7B83254CB9A7746450E304DDD96D15A5D8 ====


    Exact Audio Copy V1.5 from 20. February 2020

    EAC extraction logfile from 15. January 2022, 22:07

    V.A. / SUPER EUROBEAT presents 頭文字[イニシャル]D THE BEST OF DREAM COLLECTION DISC3: TV SERIES 裏 BEST

    Used drive  : PIONEER BD-ROM  BDC-207   Adapter: 1  ID: 0

    Read mode               : Secure
    Utilize accurate stream : Yes
    Defeat audio cache      : Yes
    Make use of C2 pointers : No

    Read offset correction                      : 667
    Overread into Lead-In and Lead-Out          : No
    Fill up missing offset samples with silence : Yes
    Delete leading and trailing silent blocks   : No
    Null samples used in CRC calculations       : Yes
    Used interface                              : Native Win32 interface for Win NT & 2000

    Used output format : Internal WAV Routines
    Sample format      : 44.100 Hz; 16 Bit; Stereo


    TOC of the extracted CD

         Track |   Start  |  Length  | Start sector | End sector
        ---------------------------------------------------------
            1  |  0:00.00 |  4:51.52 |         0    |    21876   
            2  |  4:51.52 |  4:45.10 |     21877    |    43261   
            3  |  9:36.62 |  5:09.08 |     43262    |    66444   
            4  | 14:45.70 |  5:08.35 |     66445    |    89579   
            5  | 19:54.30 |  4:59.10 |     89580    |   112014   
            6  | 24:53.40 |  4:10.40 |    112015    |   130804   
            7  | 29:04.05 |  4:56.52 |    130805    |   153056   
            8  | 34:00.57 |  4:15.13 |    153057    |   172194   
            9  | 38:15.70 |  4:40.32 |    172195    |   193226   
           10  | 42:56.27 |  5:06.53 |    193227    |   216229   
           11  | 48:03.05 |  4:26.65 |    216230    |   236244   
           12  | 52:29.70 |  5:04.10 |    236245    |   259054   
           13  | 57:34.05 |  5:20.17 |    259055    |   283071   
           14  | 62:54.22 |  4:13.23 |    283072    |   302069   
           15  | 67:07.45 |  5:19.10 |    302070    |   326004   


    Range status and errors

    Selected range

         Filename I:\V.A. - SUPER EUROBEAT presents 頭文字[イニシャル]D THE BEST OF DREAM COLLECTION DISC3- TV SERIES 裏 BEST.wav

         Peak level 100.0 %
         Extraction speed 8.3 X
         Range quality 100.0 %
         Copy CRC C9FB84DB
         Copy OK

    No errors occurred


    AccurateRip summary

    Track  1  not present in database
    Track  2  not present in database
    Track  3  not present in database
    Track  4  not present in database
    Track  5  not present in database
    Track  6  not present in database
    Track  7  not present in database
    Track  8  not present in database
    Track  9  not present in database
    Track 10  not present in database
    Track 11  not present in database
    Track 12  not present in database
    Track 13  not present in database
    Track 14  not present in database
    Track 15  not present in database

    None of the tracks are present in the AccurateRip database

    End of status report

    ---- CUETools DB Plugin V2.1.6

    [CTDB TOCID: LdTJ.6gk_McQwZ_rs9QzfGURHZw-] disk not present in database
    Submit result: LdTJ.6gk_McQwZ_rs9QzfGURHZw- has been uploaded


    ==== Log checksum AD382FFB3B5374EC1E61073A9F2B3A4266F763F9D0BAFDE2A5902E5FCFBD727A ====


    Tim85414

    见习天使
    UID:2063266
    精华:0
    主题:0
    帖子:2
    威望:1
    天使币:8
    宣传度:0
    天然°:0
    腹黑°:0
    精灵:0
    逗猫棒:0
    阅读权限:10
    注册时间:2022-1-18
    状态: 不在线

  • TA的每日心情
    开心

    签到天数: 1天[LV.1]初来乍到

  • Tim85414 发表于 2022-1-18 17:20:48 来自手机 |显示全部楼层
    有沒有BT下載!

    使用道具 举报

    chenms12

    见习天使
    UID:394397
    精华:0
    主题:0
    帖子:28
    威望:9
    天使币:3
    宣传度:0
    天然°:0
    腹黑°:0
    精灵:0
    逗猫棒:0
    阅读权限:10
    注册时间:2012-8-14
    状态: 不在线

  • TA的每日心情
    开心

    签到天数: 1天[LV.1]初来乍到

  • chenms12 发表于 2022-1-19 00:39:05 |显示全部楼层
    升级
    谢谢分享啦!等了好久了。

    使用道具 举报

    驼鹿丶

    梦幻天使
    UID:1796187
    精华:0
    主题:5
    帖子:302
    威望:2344
    天使币:1686
    宣传度:80
    天然°:511
    腹黑°:507
    精灵:0
    逗猫棒:3
    阅读权限:130
    注册时间:2018-12-26
    状态: 不在线

  • TA的每日心情
    开心

    签到天数: 176天[LV.8]以坛为家I

  • 驼鹿丶 发表于 2022-1-19 06:27:31 |显示全部楼层
    头文字D的歌很容易上头。

    使用道具 举报

    神无月彼方

    见习天使
    UID:849349
    精华:0
    主题:0
    帖子:27
    威望:9
    天使币:76
    宣传度:1
    天然°:0
    腹黑°:0
    精灵:0
    逗猫棒:0
    阅读权限:12
    注册时间:2013-11-9
    状态: 不在线

  • TA的每日心情
    郁闷

    签到天数: 9天[LV.3]偶尔看看II

  • 神无月彼方 发表于 2022-1-19 08:24:45 |显示全部楼层
    谢谢楼主分享

    使用道具 举报

    yakumo826

    梦幻天使
    UID:672144
    精华:0
    主题:0
    帖子:240
    威望:743
    天使币:2939
    宣传度:52
    天然°:10
    腹黑°:0
    精灵:0
    逗猫棒:0
    阅读权限:130
    注册时间:2013-4-30
    状态: 不在线

  • TA的每日心情
    郁闷

    签到天数: 158天[LV.8]以坛为家I

  • yakumo826 发表于 2022-1-19 19:22:27 |显示全部楼层
    感谢大佬分享~

    使用道具 举报

    神都不理你

    梦幻天使
    UID:1508859
    精华:0
    主题:5
    帖子:556
    威望:912
    天使币:18298
    宣传度:61
    天然°:26
    腹黑°:16
    精灵:1
    逗猫棒:0
    阅读权限:130
    注册时间:2016-5-30
    状态: 不在线

  • TA的每日心情
    开心

    签到天数: 407天[LV.Master]伴坛终老

  • 神都不理你 发表于 2022-1-19 20:25:05 |显示全部楼层
    谢谢楼主大大

    使用道具 举报

    神都不理你

    梦幻天使
    UID:1508859
    精华:0
    主题:5
    帖子:556
    威望:912
    天使币:18298
    宣传度:61
    天然°:26
    腹黑°:16
    精灵:1
    逗猫棒:0
    阅读权限:130
    注册时间:2016-5-30
    状态: 不在线

  • TA的每日心情
    开心

    签到天数: 407天[LV.Master]伴坛终老

  • 神都不理你 发表于 2022-1-19 20:38:42 |显示全部楼层
    文件有问题打开不了说路径不对

    使用道具 举报

    ok1886

    梦幻天使
    UID:1507042
    精华:0
    主题:0
    帖子:92
    威望:450
    天使币:1960
    宣传度:50
    天然°:10
    腹黑°:0
    精灵:0
    逗猫棒:0
    阅读权限:130
    注册时间:2016-5-26
    状态: 不在线

  • TA的每日心情
    开心

    签到天数: 60天[LV.6]常住居民II

  • ok1886 发表于 2022-1-30 11:56:01 |显示全部楼层
    感谢分享

    使用道具 举报

    ok1886

    梦幻天使
    UID:1507042
    精华:0
    主题:0
    帖子:92
    威望:450
    天使币:1960
    宣传度:50
    天然°:10
    腹黑°:0
    精灵:0
    逗猫棒:0
    阅读权限:130
    注册时间:2016-5-26
    状态: 不在线

  • TA的每日心情
    开心

    签到天数: 60天[LV.6]常住居民II

  • ok1886 发表于 2022-1-30 14:01:32 |显示全部楼层
    感谢分享!

    使用道具 举报

    您需要登录后才可以回帖 登录 | 注册

    加天使同城QQ群,有威望奖励~

    Archiver|手机版|WAP| 天使动漫论坛

    本站成立于美利堅合眾國,所處USA,旨在向全球動畫愛好者感受動畫魅力。 所有內容資源均來自網絡&網友分享,僅供學習試用,請于24小時內銷毀。如侵犯您的權益請告知,將會第壹時間刪除。 我的邮箱

    GMT+8, 2022-7-2 12:32 , Processed in 0.111006 second(s), 56 queries , Gzip On, Memcache On.

    Powered by Discuz! TSDM SP

    © 2010-2014 Style by chibimiku@TSDM

    回顶部