背景音乐
动漫∨
goseiba525

LEVEL 2 升华
UID:66877
精华:0
主题:40
帖子:484
威望:7396
天使币:31353
宣传度:463
天然°:1852
腹黑°:1852
精灵:80
哞币:0
阅读权限:80
注册时间:2011-7-11
状态: 不在线

  • TA的每日心情
    奋斗

    签到天数: 32天[LV.5]常住居民I

  • goseiba525 发表于 2021-1-13 13:00:05 |显示全部楼层


    【Amazon.co.jp限定】特典:メガジャケット

    「SUPER EUROBEAT presents 頭文字[イニシャル]D Dream Collection」の第4弾と第5弾が発売決定!!

    <対象商品>
    発売日:2021/01/08
    品番:EYCA-13073~4
    形態:AL2枚組
    タイトル:SUPER EUROBEAT presents 頭文字[イニシャル]D Dream Collection Vol.5
    タイトルカナ:スーパーユーロビート プレゼンツ イニシャルディ ドリーム コレクション ボリュームファイブ
    アーティスト:V.A.
    価格:(税込) \3,000 (税抜) \2,727
    JAN:458005535073/3

    <収録楽曲>
    [DISC1]Non Stop Remix
    1 Drifting All Night - Dejo
    2 Stop & Go - Dusty
    3 Dark Secret Love - Queen 26
    4 Let's Turn It Up - Mr. Groove
    5 You And Me - Lucky Boy
    6 Na Na Na - Valery Scott
    7 Bad Boy Can Believe Me - Remy Panther
    8 Zorro Zorro - Atrium
    9 Poison Love - Crystal
    10 Midnight Boys - Mike West
    11 Love Machine - Robert Patton
    12 Dirty Man - Vip Girls
    13 Living Together - Dolly Pop
    14 Night Fly - Mister Fly
    15 Chemical Love - John Desire
    16 Just Like A Dancer - Karen
    17 Don't Stop The Music - Valentina
    18 I Want To Believe - Marko Polo
    19 Rock You - Mad Max
    20 Sweet Fire - Pink Star
    21 Superbad - Niko
    22 Fast Love - Mike West
    23 Eat Me - Desire
    24 Imagine - Jay Lehr
    25 Super Guts - Jeff Driller
    26 Let It Go - Mega Nrg Man
    27 One Night In Tokyo - Alexis
    28 Fast & Glorious - Nick Turbo
    29 My Lonely Night - Jimmy Diamond
    30 I'll Burn You Out - Nick Key

    [DISC2]Extended
    1 Stop & Go - Dusty
    2 Dark Secret Love - Queen 26
    3 You And Me - Lucky Boy
    4 Na Na Na - Valery Scott
    5 Bad Boy Can Believe Me - Remy Panther
    6 Zorro Zorro - Atrium
    7 Dirty Man - Vip Girls
    8 Night Fly - Mister Fly
    9 Chemical Love - John Desire
    10 Just Like A Dancer - Karen
    11 Don't Stop The Music - Valentina
    12 Sweet Fire - Pink Star
    13 Eat Me - Desire
    14 Fast & Glorious - Nick Turbo
    15 I'll Burn You Out - Nick Key

    ★ポイント★
    1、大人気シリーズ第5弾!!
    2、DISC1には新曲含む全30曲をノンストップリミックス収録
    3、DISC2にはCD初収録の新曲中心としたエクステンデッドバージョンを収録

    Exact Audio Copy V1.5 from 20. February 2020

    EAC extraction logfile from 13. January 2021, 9:59

    V.A. / SUPER EUROBEAT presents 頭文字[イニシャル]D Dream Collection Vol.5 DISC1:NON STOP REMIX VERSION

    Used drive  : PIONEER BD-ROM  BDC-207   Adapter: 1  ID: 0

    Read mode               : Secure
    Utilize accurate stream : Yes
    Defeat audio cache      : Yes
    Make use of C2 pointers : No

    Read offset correction                      : 667
    Overread into Lead-In and Lead-Out          : No
    Fill up missing offset samples with silence : Yes
    Delete leading and trailing silent blocks   : No
    Null samples used in CRC calculations       : Yes
    Used interface                              : Native Win32 interface for Win NT & 2000

    Used output format : Internal WAV Routines
    Sample format      : 44.100 Hz; 16 Bit; Stereo


    TOC of the extracted CD

         Track |   Start  |  Length  | Start sector | End sector
        ---------------------------------------------------------
            1  |  0:00.00 |  3:41.70 |         0    |    16644  
            2  |  3:41.70 |  2:25.65 |     16645    |    27584  
            3  |  6:07.60 |  2:00.56 |     27585    |    36640  
            4  |  8:08.41 |  2:48.03 |     36641    |    49243  
            5  | 10:56.44 |  2:19.71 |     49244    |    59739  
            6  | 13:16.40 |  2:39.47 |     59740    |    71711  
            7  | 15:56.12 |  2:07.74 |     71712    |    81310  
            8  | 18:04.11 |  2:09.08 |     81311    |    90993  
            9  | 20:13.19 |  2:16.23 |     90994    |   101216  
           10  | 22:29.42 |  2:48.44 |    101217    |   113860  
           11  | 25:18.11 |  3:04.35 |    113861    |   127695  
           12  | 28:22.46 |  2:15.23 |    127696    |   137843  
           13  | 30:37.69 |  2:31.39 |    137844    |   149207  
           14  | 33:09.33 |  2:40.36 |    149208    |   161243  
           15  | 35:49.69 |  1:54.08 |    161244    |   169801  
           16  | 37:44.02 |  2:28.06 |    169802    |   180907  
           17  | 40:12.08 |  2:22.38 |    180908    |   191595  
           18  | 42:34.46 |  1:56.21 |    191596    |   200316  
           19  | 44:30.67 |  2:54.03 |    200317    |   213369  
           20  | 47:24.70 |  2:16.32 |    213370    |   223601  
           21  | 49:41.27 |  2:11.51 |    223602    |   233477  
           22  | 51:53.03 |  2:24.02 |    233478    |   244279  
           23  | 54:17.05 |  2:30.34 |    244280    |   255563  
           24  | 56:47.39 |  2:08.06 |    255564    |   265169  
           25  | 58:55.45 |  2:10.27 |    265170    |   274946  
           26  | 61:05.72 |  2:40.60 |    274947    |   287006  
           27  | 63:46.57 |  2:55.14 |    287007    |   300145  
           28  | 66:41.71 |  2:51.00 |    300146    |   312970  
           29  | 69:32.71 |  2:09.13 |    312971    |   322658  
           30  | 71:42.09 |  3:26.01 |    322659    |   338109  


    Range status and errors

    Selected range

         Filename J:\SUPER EUROBEAT presents 頭文字[イニシャル]D Dream Collection Vol.5\V.A. - SUPER EUROBEAT presents 頭文字[イニシャル]D Dream Collection Vol.5 DISC1-NON STOP REMIX VERSION.wav

         Peak level 96.4 %
         Extraction speed 8.2 X
         Range quality 100.0 %
         Copy CRC 3D4618AE
         Copy OK

    No errors occurred


    AccurateRip summary

    Track  1  not present in database
    Track  2  not present in database
    Track  3  not present in database
    Track  4  not present in database
    Track  5  not present in database
    Track  6  not present in database
    Track  7  not present in database
    Track  8  not present in database
    Track  9  not present in database
    Track 10  not present in database
    Track 11  not present in database
    Track 12  not present in database
    Track 13  not present in database
    Track 14  not present in database
    Track 15  not present in database
    Track 16  not present in database
    Track 17  not present in database
    Track 18  not present in database
    Track 19  not present in database
    Track 20  not present in database
    Track 21  not present in database
    Track 22  not present in database
    Track 23  not present in database
    Track 24  not present in database
    Track 25  not present in database
    Track 26  not present in database
    Track 27  not present in database
    Track 28  not present in database
    Track 29  not present in database
    Track 30  not present in database

    None of the tracks are present in the AccurateRip database

    End of status report

    ---- CUETools DB Plugin V2.1.6

    [CTDB TOCID: nMun8aYBGAnsVNF9bcDdb5j3g3g-] found
    Submit result: nMun8aYBGAnsVNF9bcDdb5j3g3g- has been confirmed
    Track | CTDB Status
      1   | (3/3) Accurately ripped
      2   | (3/3) Accurately ripped
      3   | (3/3) Accurately ripped
      4   | (3/3) Accurately ripped
      5   | (3/3) Accurately ripped
      6   | (3/3) Accurately ripped
      7   | (3/3) Accurately ripped
      8   | (3/3) Accurately ripped
      9   | (3/3) Accurately ripped
    10   | (3/3) Accurately ripped
    11   | (3/3) Accurately ripped
    12   | (3/3) Accurately ripped
    13   | (3/3) Accurately ripped
    14   | (3/3) Accurately ripped
    15   | (3/3) Accurately ripped
    16   | (3/3) Accurately ripped
    17   | (3/3) Accurately ripped
    18   | (3/3) Accurately ripped
    19   | (3/3) Accurately ripped
    20   | (3/3) Accurately ripped
    21   | (3/3) Accurately ripped
    22   | (3/3) Accurately ripped
    23   | (3/3) Accurately ripped
    24   | (3/3) Accurately ripped
    25   | (3/3) Accurately ripped
    26   | (3/3) Accurately ripped
    27   | (3/3) Accurately ripped
    28   | (3/3) Accurately ripped
    29   | (3/3) Accurately ripped
    30   | (3/3) Accurately ripped


    ==== Log checksum 5D603BFE6F145BDF88C012A620D5AA35FB25387061FAD1888AB41D628CD706BB ====


    Exact Audio Copy V1.5 from 20. February 2020

    EAC extraction logfile from 13. January 2021, 10:41

    V.A. / SUPER EUROBEAT presents 頭文字[イニシャル]D Dream Collection Vol.5 DISC2:EXTENDED VERSION

    Used drive  : PIONEER BD-ROM  BDC-207   Adapter: 1  ID: 0

    Read mode               : Secure
    Utilize accurate stream : Yes
    Defeat audio cache      : Yes
    Make use of C2 pointers : No

    Read offset correction                      : 667
    Overread into Lead-In and Lead-Out          : No
    Fill up missing offset samples with silence : Yes
    Delete leading and trailing silent blocks   : No
    Null samples used in CRC calculations       : Yes
    Used interface                              : Native Win32 interface for Win NT & 2000

    Used output format : Internal WAV Routines
    Sample format      : 44.100 Hz; 16 Bit; Stereo


    TOC of the extracted CD

         Track |   Start  |  Length  | Start sector | End sector
        ---------------------------------------------------------
            1  |  0:00.00 |  4:26.25 |         0    |    19974   
            2  |  4:26.25 |  5:03.00 |     19975    |    42699   
            3  |  9:29.25 |  5:13.12 |     42700    |    66186   
            4  | 14:42.37 |  5:41.43 |     66187    |    91804   
            5  | 20:24.05 |  4:57.07 |     91805    |   114086   
            6  | 25:21.12 |  5:25.60 |    114087    |   138521   
            7  | 30:46.72 |  5:53.05 |    138522    |   165001   
            8  | 36:40.02 |  4:20.00 |    165002    |   184501   
            9  | 41:00.02 |  5:14.70 |    184502    |   208121   
           10  | 46:14.72 |  4:27.53 |    208122    |   228199   
           11  | 50:42.50 |  5:06.00 |    228200    |   251149   
           12  | 55:48.50 |  5:06.22 |    251150    |   274121   
           13  | 60:54.72 |  5:26.18 |    274122    |   298589   
           14  | 66:21.15 |  4:18.10 |    298590    |   317949   
           15  | 70:39.25 |  5:12.50 |    317950    |   341399   


    Range status and errors

    Selected range

         Filename J:\SUPER EUROBEAT presents 頭文字[イニシャル]D Dream Collection Vol.5\V.A. - SUPER EUROBEAT presents 頭文字[イニシャル]D Dream Collection Vol.5 DISC2-EXTENDED VERSION.wav

         Peak level 96.4 %
         Extraction speed 2.1 X
         Range quality 100.0 %
         Copy CRC 3A2D0945
         Copy OK

    No errors occurred


    AccurateRip summary

    Track  1  not present in database
    Track  2  not present in database
    Track  3  not present in database
    Track  4  not present in database
    Track  5  not present in database
    Track  6  not present in database
    Track  7  not present in database
    Track  8  not present in database
    Track  9  not present in database
    Track 10  not present in database
    Track 11  not present in database
    Track 12  not present in database
    Track 13  not present in database
    Track 14  not present in database
    Track 15  not present in database

    None of the tracks are present in the AccurateRip database

    End of status report

    ---- CUETools DB Plugin V2.1.6

    [CTDB TOCID: d5xcTXD3NVxicPiygn37tTpMNIs-] found
    Submit result: d5xcTXD3NVxicPiygn37tTpMNIs- has been confirmed
    Track | CTDB Status
      1   | (3/3) Accurately ripped
      2   | (3/3) Accurately ripped
      3   | (3/3) Accurately ripped
      4   | (3/3) Accurately ripped
      5   | (3/3) Accurately ripped
      6   | (3/3) Accurately ripped
      7   | (3/3) Accurately ripped
      8   | (3/3) Accurately ripped
      9   | (3/3) Accurately ripped
    10   | (3/3) Accurately ripped
    11   | (3/3) Accurately ripped
    12   | (3/3) Accurately ripped
    13   | (3/3) Accurately ripped
    14   | (3/3) Accurately ripped
    15   | (3/3) Accurately ripped


    ==== Log checksum CF44744F26123D5D9250ECCCD93C845456AFB74B50A1DE0DB3F20959888EBE5F ====


    链接:https://pan.baidu.com/s/1rZHZqPClz8QQqn403fklAQ
    收到的礼物: x1
    Q青葱C
    归宅部部长

    梦幻天使
    UID:488209
    头衔:归宅部部长!!!
    精华:0
    主题:0
    帖子:2354
    威望:3029
    天使币:26800
    宣传度:57
    天然°:22
    腹黑°:10
    精灵:0
    哞币:0
    阅读权限:130
    注册时间:2012-10-31
    来自:第七平行宇宙
    状态: 不在线

  • TA的每日心情

    签到天数: 2121天[LV.Master]伴坛终老

  • Q青葱C 发表于 2021-1-18 13:27:55 |显示全部楼层
    真的是惊了……真的是第五章。

    使用道具 举报

    封茚x尊
    篠原悠夜

    LEVEL 1 断罪
    UID:38429
    头衔:= =
    精华:0
    主题:1
    帖子:184
    威望:175
    天使币:99
    宣传度:0
    天然°:0
    腹黑°:0
    精灵:0
    哞币:0
    阅读权限:15
    注册时间:2011-4-23
    状态: 不在线

  • TA的每日心情
    奋斗

    签到天数: 59天[LV.5]常住居民I

  • 封茚x尊 发表于 2021-1-20 07:26:14 |显示全部楼层
    升级
    来了来了!感谢分享!

    使用道具 举报

    您需要登录后才可以回帖 登录 | 注册

    加天使同城QQ群,有威望奖励~

    Archiver|手机版|WAP| 天使动漫论坛

    声明:本站所有内容资源均来自网络&网友分享,仅供学习试用。如侵犯您的权益请告知,将会第一时间删除。广告联系我的邮箱

    GMT+8, 2021-3-1 18:50 , Processed in 0.116006 second(s), 29 queries , Gzip On, Memcache On.

    Powered by Discuz! TSDM SP

    © 2010-2014 Style by chibimiku@TSDM

    回顶部