背景音乐
动漫∨
goseiba525

LEVEL 2 升华
UID:66877
精华:0
主题:40
帖子:484
威望:7396
天使币:31348
宣传度:463
天然°:1852
腹黑°:1852
精灵:80
哞币:0
阅读权限:80
注册时间:2011-7-11
状态: 不在线

  • TA的每日心情
    奋斗

    签到天数: 32天[LV.5]常住居民I

  • goseiba525 发表于 2020-9-22 12:25:42 |显示全部楼层


    基本信息
    包装尺寸 : 26 x 25 x 1.4 cm
    制造商 : エイベックス・ピクチャーズ株式会社(Music)
    标签 : エイベックス・ピクチャーズ株式会社(Music)
    ASIN : B08CLN84VH
    碟数 : 2

    発売日:2020/9/16
    タイトル: SUPER EUROBEAT presents 頭文字[イニシャル]D Dream Collection Vol.4
    DISC1:Nonstop Mix30曲(予定)
    DISC2:Extended Ver. 15曲(予定)

    ★ポイント★
    1大人気シリーズ第4弾!!
    2DISC1には新曲含む全30曲をノンストップリミックス収録
    3DISC2にはCD初収録の新曲中心としたエクステンデッドバージョンを収録

    Disc1(Non-Stop Mix)
    1 TAKUMI NEO
    2 MY BANDIDO DELTA QUEENS
    3 SEXY TOY, SEXY JOY JUNGLE BILL
    4 STORMY NIGHT DAVID ROPA
    5 INITIAL D HELL DAVE RODGERS
    6 ROCK THIS WAY NICK KEY
    7 KISSES OF LOVE SUZY LAZY
    8 EVERYBODY'S WARMING TENSION
    9 ROCK THE NATION DAVE SIMON
    10 DEEP INTO YOUR LOVE PRISCILLA
    11 QUEEN OF YOUR NIGHTS MICHELLE ROSE
    12 SAMURAI JIMMY BRAVO
    13 LIE TO ME FIRE STONE
    14 IN THE SUNRISE MEGA NRG MAN
    15 WE CAME FOR THE ROCK NIKO
    16 MAKE ME LOVE MALTESE
    17 VIBRATION! GEENA
    18 LOVE ME CRAZY MADDY LAYNE
    19 NO RETURN FASTWAY
    20 GOT TO RUN MADISON
    21 LAST FLIGHT TO JAPAN SOPHIE
    22 WANNA BE YOUR LOVER KAREN
    23 LET'S DANCE JOCK LEE
    24 RED LIGHT AND SEX MEGA NRG MAN
    25 TOKYO BABY, MIDNIGHT LADY MOTE MOTE
    26 STREET FIGHTER LUKE
    27 GAME OVER ROMEO
    28 MIDNIGHT LOVE NEO
    29 JUST SAY YEAH KAIOH
    30 PULL THE TRIGGER BON

    Disc2(Extended)
    1 INITIAL D HELL DAVE RODGERS
    2 ROCK THIS WAY NICK KEY
    3 KISSES OF LOVE SUZY LAZY
    4 DEEP INTO YOUR LOVE PRISCILLA
    5 QUEEN OF YOUR NIGHTS MICHELLE ROSE
    6 SAMURAI JIMMY BRAVO
    7 LIE TO ME FIRE STONE
    8 LOVE ME CRAZY MADDY LAYNE
    9 NO RETURN FASTWAY
    10 GOT TO RUN MADISON
    11 LAST FLIGHT TO JAPAN SOPHIE
    12 WANNA BE YOUR LOVER KAREN
    13 LET'S DANCE JOCK LEE
    14 TOKYO BABY, MIDNIGHT LADY MOTE MOTE
    15 GAME OVER ROMEO

    Exact Audio Copy V1.5 from 20. February 2020

    EAC extraction logfile from 22. September 2020, 10:36

    V.A. / SUPER EUROBEAT presents 頭文字[イニシャル]D Dream Collection Vol.4 DISC1:NON STOP REMIX VERSION

    Used drive  : PIONEER BD-ROM  BDC-207   Adapter: 1  ID: 0

    Read mode               : Secure
    Utilize accurate stream : Yes
    Defeat audio cache      : Yes
    Make use of C2 pointers : No

    Read offset correction                      : 667
    Overread into Lead-In and Lead-Out          : No
    Fill up missing offset samples with silence : Yes
    Delete leading and trailing silent blocks   : No
    Null samples used in CRC calculations       : Yes
    Used interface                              : Native Win32 interface for Win NT & 2000

    Used output format : Internal WAV Routines
    Sample format      : 44.100 Hz; 16 Bit; Stereo


    TOC of the extracted CD

         Track |   Start  |  Length  | Start sector | End sector
        ---------------------------------------------------------
            1  |  0:00.00 |  3:45.14 |         0    |    16888   
            2  |  3:45.14 |  2:10.48 |     16889    |    26686   
            3  |  5:55.62 |  2:17.57 |     26687    |    37018   
            4  |  8:13.44 |  2:17.67 |     37019    |    47360   
            5  | 10:31.36 |  2:59.50 |     47361    |    60835   
            6  | 13:31.11 |  2:40.60 |     60836    |    72895   
            7  | 16:11.71 |  2:32.16 |     72896    |    84311   
            8  | 18:44.12 |  2:04.34 |     84312    |    93645   
            9  | 20:48.46 |  1:58.46 |     93646    |   102541   
           10  | 22:47.17 |  1:56.03 |    102542    |   111244   
           11  | 24:43.20 |  2:19.46 |    111245    |   121715   
           12  | 27:02.66 |  2:18.01 |    121716    |   132066   
           13  | 29:20.67 |  2:10.07 |    132067    |   141823   
           14  | 31:30.74 |  2:07.52 |    141824    |   151400   
           15  | 33:38.51 |  2:19.69 |    151401    |   161894   
           16  | 35:58.45 |  2:40.01 |    161895    |   173895   
           17  | 38:38.46 |  2:50.38 |    173896    |   186683   
           18  | 41:29.09 |  2:19.03 |    186684    |   197111   
           19  | 43:48.12 |  2:25.61 |    197112    |   208047   
           20  | 46:13.73 |  2:14.62 |    208048    |   218159   
           21  | 48:28.60 |  2:15.27 |    218160    |   228311   
           22  | 50:44.12 |  2:16.50 |    228312    |   238561   
           23  | 53:00.62 |  2:08.50 |    238562    |   248211   
           24  | 55:09.37 |  2:23.72 |    248212    |   259008   
           25  | 57:33.34 |  2:28.31 |    259009    |   270139   
           26  | 60:01.65 |  2:23.73 |    270140    |   280937   
           27  | 62:25.63 |  2:22.17 |    280938    |   291604   
           28  | 64:48.05 |  2:16.49 |    291605    |   301853   
           29  | 67:04.54 |  1:59.00 |    301854    |   310778   
           30  | 69:03.54 |  3:19.74 |    310779    |   325777   


    Range status and errors

    Selected range

         Filename I:\SUPER EUROBEAT presents 頭文字[イニシャル]D Dream Collection Vol.4\V.A. - SUPER EUROBEAT presents 頭文字[イニシャル]D Dream Collection Vol.4 DISC1-NON STOP REMIX VERSION.wav

         Peak level 96.4 %
         Extraction speed 5.0 X
         Range quality 100.0 %
         Copy CRC F79667C4
         Copy OK

    No errors occurred


    AccurateRip summary

    Track  1  not present in database
    Track  2  not present in database
    Track  3  not present in database
    Track  4  not present in database
    Track  5  not present in database
    Track  6  not present in database
    Track  7  not present in database
    Track  8  not present in database
    Track  9  not present in database
    Track 10  not present in database
    Track 11  not present in database
    Track 12  not present in database
    Track 13  not present in database
    Track 14  not present in database
    Track 15  not present in database
    Track 16  not present in database
    Track 17  not present in database
    Track 18  not present in database
    Track 19  not present in database
    Track 20  not present in database
    Track 21  not present in database
    Track 22  not present in database
    Track 23  not present in database
    Track 24  not present in database
    Track 25  not present in database
    Track 26  not present in database
    Track 27  not present in database
    Track 28  not present in database
    Track 29  not present in database
    Track 30  not present in database

    None of the tracks are present in the AccurateRip database

    End of status report

    ---- CUETools DB Plugin V2.1.6

    [CTDB TOCID: n86cAXS4Pa96AcrCOf6daZibVC0-] found
    Submit result: n86cAXS4Pa96AcrCOf6daZibVC0- has been confirmed
    Track | CTDB Status
      1   | (3/3) Accurately ripped
      2   | (3/3) Accurately ripped
      3   | (3/3) Accurately ripped
      4   | (3/3) Accurately ripped
      5   | (3/3) Accurately ripped
      6   | (3/3) Accurately ripped
      7   | (3/3) Accurately ripped
      8   | (3/3) Accurately ripped
      9   | (3/3) Accurately ripped
    10   | (3/3) Accurately ripped
    11   | (3/3) Accurately ripped
    12   | (3/3) Accurately ripped
    13   | (3/3) Accurately ripped
    14   | (3/3) Accurately ripped
    15   | (3/3) Accurately ripped
    16   | (3/3) Accurately ripped
    17   | (3/3) Accurately ripped
    18   | (3/3) Accurately ripped
    19   | (3/3) Accurately ripped
    20   | (3/3) Accurately ripped
    21   | (3/3) Accurately ripped
    22   | (3/3) Accurately ripped
    23   | (3/3) Accurately ripped
    24   | (3/3) Accurately ripped
    25   | (3/3) Accurately ripped
    26   | (3/3) Accurately ripped
    27   | (3/3) Accurately ripped
    28   | (3/3) Accurately ripped
    29   | (3/3) Accurately ripped
    30   | (2/3) Accurately ripped


    ==== Log checksum 36E48B8603C082E90C9C7DC55B04ED4FBD86B2E8C8DF8A133BD65894A719A43B ====


    Exact Audio Copy V1.5 from 20. February 2020

    EAC extraction logfile from 22. September 2020, 12:17

    V.A. / SUPER EUROBEAT presents 頭文字[イニシャル]D Dream Collection Vol.4 DISC2:EXTENDED VERSION

    Used drive  : PIONEER BD-ROM  BDC-207   Adapter: 1  ID: 0

    Read mode               : Secure
    Utilize accurate stream : Yes
    Defeat audio cache      : Yes
    Make use of C2 pointers : No

    Read offset correction                      : 667
    Overread into Lead-In and Lead-Out          : No
    Fill up missing offset samples with silence : Yes
    Delete leading and trailing silent blocks   : No
    Null samples used in CRC calculations       : Yes
    Used interface                              : Native Win32 interface for Win NT & 2000

    Used output format : Internal WAV Routines
    Sample format      : 44.100 Hz; 16 Bit; Stereo


    TOC of the extracted CD

         Track |   Start  |  Length  | Start sector | End sector
        ---------------------------------------------------------
            1  |  0:00.00 |  5:05.55 |         0    |    22929   
            2  |  5:05.55 |  5:13.12 |     22930    |    46416   
            3  | 10:18.67 |  5:24.18 |     46417    |    70734   
            4  | 15:43.10 |  5:03.07 |     70735    |    93466   
            5  | 20:46.17 |  4:54.20 |     93467    |   115536   
            6  | 25:40.37 |  5:08.45 |    115537    |   138681   
            7  | 30:49.07 |  5:24.25 |    138682    |   163006   
            8  | 36:13.32 |  5:18.15 |    163007    |   186871   
            9  | 41:31.47 |  5:08.50 |    186872    |   210021   
           10  | 46:40.22 |  5:17.13 |    210022    |   233809   
           11  | 51:57.35 |  5:31.62 |    233810    |   258696   
           12  | 57:29.22 |  5:25.05 |    258697    |   283076   
           13  | 62:54.27 |  5:15.43 |    283077    |   306744   
           14  | 68:09.70 |  5:01.50 |    306745    |   329369   
           15  | 73:11.45 |  5:45.20 |    329370    |   355264   


    Range status and errors

    Selected range

         Filename I:\SUPER EUROBEAT presents 頭文字[イニシャル]D Dream Collection Vol.4\V.A. - SUPER EUROBEAT presents 頭文字[イニシャル]D Dream Collection Vol.4 DISC2-EXTENDED VERSION.wav

         Peak level 96.4 %
         Extraction speed 8.4 X
         Range quality 100.0 %
         Copy CRC 8B5437E1
         Copy OK

    No errors occurred


    AccurateRip summary

    Track  1  not present in database
    Track  2  not present in database
    Track  3  not present in database
    Track  4  not present in database
    Track  5  not present in database
    Track  6  not present in database
    Track  7  not present in database
    Track  8  not present in database
    Track  9  not present in database
    Track 10  not present in database
    Track 11  not present in database
    Track 12  not present in database
    Track 13  not present in database
    Track 14  not present in database
    Track 15  not present in database

    None of the tracks are present in the AccurateRip database

    End of status report

    ---- CUETools DB Plugin V2.1.6

    [CTDB TOCID: gc4t7pMvF9l_l4k4WIH.NAaVoDA-] found
    Submit result: already submitted
    Track | CTDB Status
      1   | (3/3) Accurately ripped
      2   | (3/3) Accurately ripped
      3   | (3/3) Accurately ripped
      4   | (3/3) Accurately ripped
      5   | (3/3) Accurately ripped
      6   | (3/3) Accurately ripped
      7   | (3/3) Accurately ripped
      8   | (3/3) Accurately ripped
      9   | (3/3) Accurately ripped
    10   | (3/3) Accurately ripped
    11   | (3/3) Accurately ripped
    12   | (3/3) Accurately ripped
    13   | (3/3) Accurately ripped
    14   | (3/3) Accurately ripped
    15   | (3/3) Accurately ripped


    ==== Log checksum DB6F07ACBC90831734031C612CD6F7AFB387DA69F5557649EC37B4E700A63770 ====


    链接:https://pan.baidu.com/s/1rVphLZeRcGLE7ANSTdI4_w
    收到的礼物: x1
    内燃机桑

    梦幻天使
    UID:1258449
    精华:0
    主题:0
    帖子:170
    威望:682
    天使币:826
    宣传度:125
    天然°:50
    腹黑°:50
    精灵:0
    哞币:0
    阅读权限:130
    注册时间:2015-5-10
    状态: 不在线

  • TA的每日心情
    无聊

    签到天数: 35天[LV.5]常住居民I

  • 内燃机桑 发表于 2020-9-22 21:25:14 |显示全部楼层
    终于来了!!!
    本想着我自己去买一张的(笑)
    感谢分享!

    使用道具 举报

    Miller-Qin
    木杪 Kimiao

    梦幻天使★
    UID:1089587
    精华:0
    主题:11
    帖子:1096
    威望:7950
    天使币:38078
    宣传度:1112
    天然°:2898
    腹黑°:2082
    精灵:26
    哞币:0
    阅读权限:135
    注册时间:2014-9-24
    状态: 不在线

  • TA的每日心情
    开心

    签到天数: 406天[LV.Master]伴坛终老

  • Miller-Qin 发表于 2020-9-23 12:04:59 |显示全部楼层
    升级
    作业曲+1

    动次打次摇头晃脑ing

    使用道具 举报

    peterxou

    见习天使
    UID:1976953
    精华:0
    主题:0
    帖子:1
    威望:0
    天使币:6
    宣传度:0
    天然°:0
    腹黑°:0
    精灵:0
    哞币:0
    阅读权限:10
    注册时间:2020-10-2
    状态: 不在线

    该用户从未签到

    peterxou 发表于 2020-10-2 19:35:43 |显示全部楼层
    太快了 现在再买恐怕也得一阵子能到国内了

    使用道具 举报

    littlesimon

    LEVEL 3 POWER
    UID:67024
    精华:0
    主题:0
    帖子:855
    威望:709
    天使币:741
    宣传度:0
    天然°:0
    腹黑°:0
    精灵:0
    哞币:0
    阅读权限:25
    注册时间:2011-7-12
    状态: 不在线

  • TA的每日心情
    开心

    签到天数: 8天[LV.3]偶尔看看II

  • littlesimon 发表于 2020-12-12 20:56:36 |显示全部楼层
    油门焊死!

    使用道具 举报

    Q青葱C
    归宅部部长

    梦幻天使
    UID:488209
    头衔:归宅部部长!!!
    精华:0
    主题:0
    帖子:2354
    威望:3029
    天使币:26800
    宣传度:57
    天然°:22
    腹黑°:10
    精灵:0
    哞币:0
    阅读权限:130
    注册时间:2012-10-31
    来自:第七平行宇宙
    状态: 不在线

  • TA的每日心情

    签到天数: 2121天[LV.Master]伴坛终老

  • Q青葱C 发表于 2020-12-19 18:53:18 |显示全部楼层
    神特喵出第四章了。

    使用道具 举报

    goseiba525

    LEVEL 2 升华
    UID:66877
    精华:0
    主题:40
    帖子:484
    威望:7396
    天使币:31348
    宣传度:463
    天然°:1852
    腹黑°:1852
    精灵:80
    哞币:0
    阅读权限:80
    注册时间:2011-7-11
    状态: 不在线

  • TA的每日心情
    奋斗

    签到天数: 32天[LV.5]常住居民I

  • goseiba525 发表于 2020-12-31 10:04:54 |显示全部楼层
    Q青葱C 发表于 2020-12-19 18:53
    神特喵出第四章了。

    1月还有5呢

    使用道具 举报

    Q青葱C
    归宅部部长

    梦幻天使
    UID:488209
    头衔:归宅部部长!!!
    精华:0
    主题:0
    帖子:2354
    威望:3029
    天使币:26800
    宣传度:57
    天然°:22
    腹黑°:10
    精灵:0
    哞币:0
    阅读权限:130
    注册时间:2012-10-31
    来自:第七平行宇宙
    状态: 不在线

  • TA的每日心情

    签到天数: 2121天[LV.Master]伴坛终老

  • Q青葱C 发表于 2020-12-31 20:05:46 |显示全部楼层
    goseiba525 发表于 2020-12-31 10:04
    1月还有5呢

    我的天,真就季乐新曲……

    使用道具 举报

    您需要登录后才可以回帖 登录 | 注册

    加天使同城QQ群,有威望奖励~

    Archiver|手机版|WAP| 天使动漫论坛

    声明:本站所有内容资源均来自网络&网友分享,仅供学习试用。如侵犯您的权益请告知,将会第一时间删除。广告联系我的邮箱

    GMT+8, 2021-3-1 17:45 , Processed in 0.203012 second(s), 48 queries , Gzip On, Memcache On.

    Powered by Discuz! TSDM SP

    © 2010-2014 Style by chibimiku@TSDM

    回顶部